Jump to content
Sign in to follow this  
Mr.White

720 albo 1080 jesli chodzi o mkv

Recommended Posts

Witam!

Niewiedzialem gdzie ten temat zamiescic,wiec napisze tutaj,

mam pytanie co jest lepsze 720 albo 1080 jesli chodzi o mkv,mam tv hd ready 720 i niewiem jakie pliki pobrac 720 czy 1080

co bedzie lepiej wygladalo i czy 720 wystarczy, aha tv to plazma 37,

juz jeden plik pobralem nie wiem czy dobry?

General

Unique ID : 237090054780368927832068826661540518376 (0xB25DE233BA20750096C64EC4E292D9E8)

Complete name : D:\Neue Movies\Die.Mumie.1.QRC.2Pass.mkv

Format : Matroska

Format version : Version 2

File size : 5.40 GiB

Duration : 2h 4mn

Overall bit rate : 6 196 Kbps

Encoded date : UTC 2012-08-15 12:41:51

Writing application : mkvmerge v3.0.0 ('Hang up your Hang-Ups') gebaut am Dec 12 2009 15:20:35

Writing library : libebml v0.7.9 + libmatroska v0.8.1

Video

ID : 1

Format : AVC

Format/Info : Advanced Video Codec

Format profile : Main@L4.1

Format settings, CABAC : No

Format settings, ReFrames : 2 frames

Codec ID : V_MPEG4/ISO/AVC

Duration : 2h 4mn

Bit rate : 5 426 Kbps

Width : 1 280 pixels

Height : 544 pixels

Display aspect ratio : 2.35:1

Frame rate : 23.976 fps

Color space : YUV

Chroma subsampling : 4:2:0

Bit depth : 8 bits

Scan type : Progressive

Bits/(Pixel*Frame) : 0.325

Stream size : 4.63 GiB (86%)

Writing library : x264 core 80 r1376 3feaec2

Encoding settings : cabac=0 / ref=1 / deblock=0:-1:-1 / analyse=0:0 / me=dia / subme=0 / psy=1 / psy_rd=0.0:0.0 / mixed_ref=0 / me_range=16 / chroma_me=1 / trellis=0 / 8x8dct=0 / cqm=0 / deadzone=21,11 / fast_pskip=1 / chroma_qp_offset=0 / threads=6 / sliced_threads=0 / nr=0 / decimate=1 / mbaff=0 / constrained_intra=0 / bframes=4 / b_pyramid=0 / b_adapt=2 / b_bias=0 / direct=1 / wpredb=1 / wpredp=0 / keyint=250 / keyint_min=25 / scenecut=0 / rc=2pass / mbtree=0 / bitrate=5426 / ratetol=1.0 / qcomp=0.60 / qpmin=10 / qpmax=51 / qpstep=4 / cplxblur=20.0 / qblur=0.5 / ip_ratio=1.40 / pb_ratio=1.30 / aq=0

Default : Yes

Forced : No

Audio

ID : 2

Format : DTS

Format/Info : Digital Theater Systems

Codec ID : A_DTS

Duration : 2h 4mn

Bit rate mode : Constant

Bit rate : 755 Kbps

Channel(s) : 6 channels

Channel positions : Front: L C R, Side: L R, LFE

Sampling rate : 48.0 KHz

Bit depth : 24 bits

Compression mode : Lossy

Stream size : 673 MiB (12%)

Title : German

Language : German

Default : Yes

Forced : No

Text

ID : 3

Format : UTF-8

Codec ID : S_TEXT/UTF8

Codec ID/Info : UTF-8 Plain Text

Language : German

Default : Yes

Forced : No

Share this post


Link to post
Share on other sites

o to przepraszam piractwo

tylko ze wszyscy pisza tu o roznych playerach typu wdtv dune itd

natych playerach ogladaja orginaly?

Share this post


Link to post
Share on other sites

hmm jakas mala ta plasma;] 720 bedzie okej ,720 czy 1080 na tylu calach roznicy niebedzie widac;]

Share this post


Link to post
Share on other sites

Jeśli telewizor posiada matrycę HD ready, czyli wyświetla rozdzielczość 720p. Więcej chyba pisać nie muszę ;)

Share this post


Link to post
Share on other sites

No nie wiem,

Ja bym zalecał jednak 1080.

Oto powody:

1. Rip do 1080 przynajmniej nie musi być skalowany a więc przynajmniej na tym elemencie nie będzie utraty jakości

2. TV HD ready to zazwyczaj 1360x768 a więc w przypadku ripa do 720p mamy najpierw skalowanie w dół do 720 a potem w górę do 768 linii i dodatkową utratę jakości

3. po zmianie TV na lepszy będzie jak znalazł

Share this post


Link to post
Share on other sites

No nie wiem,

Ja bym zalecał jednak 1080.

Oto powody:

1. Rip do 1080 przynajmniej nie musi być skalowany a więc przynajmniej na tym elemencie nie będzie utraty jakości

2. TV HD ready to zazwyczaj 1360x768 a więc w przypadku ripa do 720p mamy najpierw skalowanie w dół do 720 a potem w górę do 768 linii i dodatkową utratę jakości

3. po zmianie TV na lepszy będzie jak znalazł

ok,tylko ze moja plazma ma rozdzielczosc 1020x720

Share this post


Link to post
Share on other sites

@Mr. White a dlaczego sam nie porównasz czy widzisz różnicę pomiędzy jednym a drugim?

Share this post


Link to post
Share on other sites

juz jeden plik pobralem nie wiem czy dobry?

Witaj.

Hmmm ... nie wiesz czy dobry ?

Możesz chyba sam ocenić ?

Pobierz ten drugi i porównaj.

Share this post


Link to post
Share on other sites

Join the conversation

You can post now and register later. If you have an account, sign in now to post with your account.
Note: Your post will require moderator approval before it will be visible.

Guest
Reply to this topic...

×   Pasted as rich text.   Paste as plain text instead

  Only 75 emoji are allowed.

×   Your link has been automatically embedded.   Display as a link instead

×   Your previous content has been restored.   Clear editor

×   You cannot paste images directly. Upload or insert images from URL.

Sign in to follow this  

  • Recently Browsing   0 members

    No registered users viewing this page.

×
×
  • Create New...