Jump to content
Gmeru

Startuje sprzedaż Nvidia Shield Android TV box 4K

Recommended Posts

Nvidia rozpoczęła właśnie w USA sprzedaż swojej konsoli do gier, opartej na systemie Android TV. Dostępna będzie również wersja z dyskiem o pojemności 500GB.

Urządzenie obsługiwać będzie serwis GRID, zapewniający streaming gier poprzez Internet. Dodano także obsługę streamingu wideo w rozdzielczości 4K.

Podobnie jak inne urządzenia z systemem Android, Nvidia Shield będzie oferować takie aplikacje jak Netflix, YouTube czy HBO Now. Netflix niedawno ogłosił, że 4K jest teraz dostępne na urządzeniach Android TV, co znaczy, że będzie można się cieszyć nim również na powyższym urządzeniu. YouTube również będzie dostępny w 4K.

Nvidia podaje, że obecnie jest ponad 200 gier na Android TV, a 20 dodatkowych tytułów, wyłącznie dla konsoli Shield ma pojawić się w najbliższych miesiącach.

Urządzenie dostępne jest w wariancie 16GB i 500GB, w cenie odpowiednio 200 i 300 dolarów.

Kliknij tutaj aby zobaczyć całą treść artykułu

Share this post


Link to post
Share on other sites

Na papierze wygląda świetnie. Zobaczymy jak soft będzie działał w praktyce. Ja mam wątpliwości.

Zapewne znowu ktoś chce byc pierwszy i najlepszy i ... wypuszcza na rynek niedopracowany produkt.

Ktoś chce się załozyć, że nie mam racji ? ;).

Pozdro

Share this post


Link to post
Share on other sites

No jak wiadomo to nie są pierwsze ruchu ze strony nvidii w tym kierunku więc może być ciekawa zabawka. Postaramy się to w przyszłości potestować.

Share this post


Link to post
Share on other sites

Potestowałem kilka plików:

General
Unique ID                                : 145493049474963754749167828989914451107 (0x6D74F12B651C7AEDE259E2D0A4B10CA3)
Complete name                            : /Pulpit/Pliki testowe/sintel-4096x1744-cfg02.mkv
Format                                   : Matroska
Format version                           : Version 4 / Version 2
File size                                : 452 MiB
Duration                                 : 14mn 48s
Overall bit rate                         : 4 273 Kbps
Encoded date                             : UTC 2014-06-30 09:20:03
Writing application                      : mkvmerge v6.8.0 ('Theme for Great Cities') 64bit built on Mar  5 2014 14:50:33
Writing library                          : libebml v1.3.0 + libmatroska v1.4.1

Video
ID                                       : 1
Format                                   : HEVC
Format/Info                              : High Efficiency Video Coding
Format profile                           : Main
Codec ID                                 : V_MPEGH/ISO/HEVC
Duration                                 : 14mn 48s
Width                                    : 4 096 pixels
Height                                   : 1 744 pixels
Display aspect ratio                     : 2.35:1
Frame rate mode                          : Constant
Frame rate                               : 24.000 fps
Color space                              : YUV
Chroma subsampling                       : 4:2:0
Bit depth                                : 8 bits
Language                                 : English
Default                                  : Yes
Forced                                   : No

Audio
ID                                       : 2
Format                                   : AAC
Format/Info                              : Advanced Audio Codec
Format profile                           : LC
Codec ID                                 : A_AAC
Duration                                 : 14mn 48s
Channel(s)                               : 6 channels
Channel positions                        : Front: L C R, Side: L R, LFE
Sampling rate                            : 48.0 KHz
Compression mode                         : Lossy
Language                                 : English
Default                                  : Yes
Forced                                   : No

Text #1
ID                                       : 3
Format                                   : UTF-8
Codec ID                                 : S_TEXT/UTF8
Codec ID/Info                            : UTF-8 Plain Text
Language                                 : English
Default                                  : Yes
Forced                                   : No



General
Unique ID                                : 182387392749196777623550674349092130401 (0x893688BBEBA63A9015198C7E408A4E61)
Complete name                            : /Pulpit/Pliki testowe/tos-4096x1720-tiles.mkv
Format                                   : Matroska
Format version                           : Version 4 / Version 2
File size                                : 233 MiB
Duration                                 : 12mn 14s
Overall bit rate                         : 2 658 Kbps
Encoded date                             : UTC 2014-03-24 10:14:59
Writing application                      : mkvmerge v6.8.0 ('Theme for Great Cities') 64bit built on Mar  5 2014 14:50:33
Writing library                          : libebml v1.3.0 + libmatroska v1.4.1

Video
ID                                       : 1
Format                                   : HEVC
Format/Info                              : High Efficiency Video Coding
Format profile                           : Main
Codec ID                                 : V_MPEGH/ISO/HEVC
Duration                                 : 12mn 14s
Bit rate                                 : 2 157 Kbps
Width                                    : 4 096 pixels
Height                                   : 1 720 pixels
Original height                          : 1 714 pixels
Display aspect ratio                     : 2.40:1
Frame rate mode                          : Constant
Frame rate                               : 24.000 fps
Color space                              : YUV
Chroma subsampling                       : 4:2:0
Bit depth                                : 8 bits
Bits/(Pixel*Frame)                       : 0.013
Stream size                              : 189 MiB (81%)
Language                                 : English
Default                                  : Yes
Forced                                   : No

Audio
ID                                       : 2
Format                                   : AC-3
Format/Info                              : Audio Coding 3
Mode extension                           : CM (complete main)
Format settings, Endianness              : Big
Codec ID                                 : A_AC3
Duration                                 : 12mn 14s
Bit rate mode                            : Constant
Bit rate                                 : 448 Kbps
Channel(s)                               : 6 channels
Channel positions                        : Front: L C R, Side: L R, LFE
Sampling rate                            : 48.0 KHz
Bit depth                                : 16 bits
Compression mode                         : Lossy
Stream size                              : 39.2 MiB (17%)
Language                                 : English
Default                                  : Yes
Forced                                   : No

Text #17
ID                                       : 19
Format                                   : UTF-8
Codec ID                                 : S_TEXT/UTF8
Codec ID/Info                            : UTF-8 Plain Text
Language                                 : Polish
Default                                  : No
Forced                                   : No


General
Unique ID                                : 254074005562598461466862854421767584483 (0xBF24DFA056FF8E63A534FB01A67CFAE3)
Complete name                            : /Pulpit/Pliki testowe/Jellyfish-120-Mbps.mkv
Format                                   : Matroska
Format version                           : Version 2
File size                                : 430 MiB
Duration                                 : 30s 30ms
Overall bit rate                         : 120 Mbps
Encoded date                             : UTC 2012-08-19 20:59:11
Writing application                      : mkvmerge v5.7.0 ('The Whirlwind') built on Jul  8 2012 20:08:51
Writing library                          : libebml v1.2.3 + libmatroska v1.3.0

Video
ID                                       : 1
Format                                   : AVC
Format/Info                              : Advanced Video Codec
Format profile                           : High@L5.0
Format settings, CABAC                   : Yes
Format settings, ReFrames                : 3 frames
Format settings, GOP                     : M=3, N=33
Muxing mode                              : Header stripping
Codec ID                                 : V_MPEG4/ISO/AVC
Duration                                 : 30s 30ms
Bit rate                                 : 118 Mbps
Width                                    : 1 920 pixels
Height                                   : 1 080 pixels
Display aspect ratio                     : 16:9
Frame rate mode                          : Constant
Frame rate                               : 23.976 fps
Standard                                 : NTSC
Color space                              : YUV
Chroma subsampling                       : 4:2:0
Bit depth                                : 8 bits
Scan type                                : Progressive
Bits/(Pixel*Frame)                       : 2.369
Stream size                              : 422 MiB (98%)
Language                                 : English
Default                                  : Yes
Forced                                   : No
Color primaries                          : BT.709
Transfer characteristics                 : BT.709
Matrix coefficients                      : BT.709

General
ID                                       : 0 (0x0)
Complete name                            : /Pulpit/Pliki testowe/ShakeNDry_3840x2160_120fps_420_8bit_HEVC_TS.ts
Format                                   : MPEG-TS
File size                                : 15.0 MiB
Duration                                 : 9s 800ms
Overall bit rate mode                    : Variable
Overall bit rate                         : 12.8 Mbps

Video
ID                                       : 101 (0x65)
Menu ID                                  : 1 (0x1)
Format                                   : HEVC
Format/Info                              : High Efficiency Video Coding
Format profile                           : Main
Codec ID                                 : 36
Duration                                 : 9s 966ms
Bit rate                                 : 12.1 Mbps
Width                                    : 3 840 pixels
Height                                   : 2 160 pixels
Display aspect ratio                     : 16:9
Color space                              : YUV
Chroma subsampling                       : 4:2:0
Bit depth                                : 8 bits
Stream size                              : 14.4 MiB (96%)

General
Unique ID                                : 86015745233769118449801053766252904485 (0x40B607AA5FBA4F5FC332E55F3CA24025)
Complete name                            : /Pulpit/Pliki testowe/bbb-3840x2160-cfg02.mkv
Format                                   : Matroska
Format version                           : Version 4 / Version 2
File size                                : 463 MiB
Duration                                 : 10mn 34s
Overall bit rate                         : 6 126 Kbps
Encoded date                             : UTC 2014-06-10 08:46:02
Writing application                      : mkvmerge v6.8.0 ('Theme for Great Cities') 64bit built on Mar  5 2014 14:50:33
Writing library                          : libebml v1.3.0 + libmatroska v1.4.1

Video
ID                                       : 1
Format                                   : HEVC
Format/Info                              : High Efficiency Video Coding
Format profile                           : Main
Codec ID                                 : V_MPEGH/ISO/HEVC
Duration                                 : 10mn 34s
Width                                    : 3 840 pixels
Height                                   : 2 160 pixels
Display aspect ratio                     : 16:9
Frame rate mode                          : Constant
Frame rate                               : 60.000 fps
Color space                              : YUV
Chroma subsampling                       : 4:2:0
Bit depth                                : 8 bits
Language                                 : English
Default                                  : Yes
Forced                                   : No

Audio
ID                                       : 2
Format                                   : AAC
Format/Info                              : Advanced Audio Codec
Format profile                           : LC
Codec ID                                 : A_AAC
Duration                                 : 10mn 34s
Channel(s)                               : 6 channels
Channel positions                        : Front: L C R, Side: L R, LFE
Sampling rate                            : 48.0 KHz
Compression mode                         : Lossy
Default                                  : Yes
Forced                                   : No


Wszystkie próbki testowałem po sieci lan z NASa

MX Player odtworzył wszystkie próbki.(Jellyfish-120-Mbps po sambie sie tnie, NFS w kodi ok)

Kodi wszystkie odtworzył oprócz ShakeNDry_3840x2160_120fps_420_8bit_HEVC_TS.ts

Dzwieku nie testowałem.

Share this post


Link to post
Share on other sites

Dołączyłem do użytkowników w/w zabawki. Niestety zabawę muszę odłożyć na trochę później gdyż dostałem pilota, który działa maksymalnie 1m od Shielda :(

Jak już dotrze do mnie drugi egzemplarz to może coś więcej napisze.

Pozdrawiam

Share this post


Link to post
Share on other sites

Aplikacja działa. Działa również mój stary Logitech (Shield ma BT i IR), niestety ma opóźnienia,a to komfortowe nie jest.

Pilot od Nexusa Player nie działa :(

Share this post


Link to post
Share on other sites

Ja napiszę tylko tyle: dawno Cię nie było!!! :D Pisz bo zawsze ciekawe rzeczy majstrowałeś : )

Share this post


Link to post
Share on other sites

Jestem, jestem...

Ostatnie cztery lata bawię się w inne zabawki. Teraz to najważniejszy jest rower. Oczywiście HD,haha

Edited by janek_pl
  • Like 1

Share this post


Link to post
Share on other sites

kurcze android ciągle mna ograniczenia jako medi aplayer ale po ostatniej aktualizacje jest dużo lepiej. Możesz zerknąc jak to działa w ramach HD audio i Dolby Atmos. Podobno zrywa dźwięk ale czy to jest częste. chciałbym juz popcorna wyrzucić do kosza.

Share this post


Link to post
Share on other sites

Po odpaleniu kilku trailerów z Dolby Atmos nie stwierdziłem jakiś problemów. Wszystko przez KODI 16 beta 2 idzie na ampli w pcm (mój amplituner nie wspiera DA)

Jak narazie Shield wymiękł na TimeScapes.2012.2304p w momencie kiedy są gwiazdki na niebie :(

Share this post


Link to post
Share on other sites

Mała aktualizacja:

Nvidia Shield TV jak się okazuje odtwarza każdy materiał 4K bez najmniejszego zajęknięcia. Wcześniejszy problem z TimeScapes okazał się problemem switcha, a nie samego Shielda.

Sam materiał obciąża zabawkę Nvidii w ok 50%.

2015-12-08%2023.00.29.jpg

Edited by janek_pl

Share this post


Link to post
Share on other sites

Tak sie wlasnie dziwilem, czemu ta wesja filmu Ci tnie, skoro u mnie dziala plynnie.

Nie jestem przekonany czy "odtwarza kazdy material 4k bez najmniejszego zajakniecia"

Ja widze ciemnosc podczas proby odtworzenia wersji cineform tego filmu

General
Complete name : \\N54L\video\movies\4K\TimeScapes_The_Movie_4k_Cineform_4096_x_2304\TimeScapes 4k CineForm\TimeScapes 4k CineForm\TimeScapes 4k CineForm.avi
Format : AVI
Format/Info : Audio Video Interleave
Format profile : OpenDML
File size : 307 GiB
Duration : 48mn 22s
Overall bit rate : 909 Mbps
Video
ID : 0
Format : CineForm
Codec ID : CFHD
Codec ID/Info : CineForm 10-bit Visually Perfect HD (Wavelet)
Duration : 48mn 21s
Bit rate : 908 Mbps
Width : 4 096 pixels
Height : 2 304 pixels
Display aspect ratio : 16:9
Frame rate : 23.976 fps
Scan type : Progressive
Bits/(Pixel*Frame) : 4.013
Stream size : 307 GiB (100%)
Audio
ID : 1
Format : PCM
Format settings, Endianness : Little
Format settings, Sign : Signed
Codec ID : 1
Duration : 48mn 22s
Bit rate mode : Constant
Bit rate : 1 536 Kbps
Channel(s) : 2 channels
Sampling rate : 48.0 KHz
Bit depth : 16 bits
Stream size : 531 MiB (0%)
Alignment : Aligned on interleaves
Interleave, duration : 250 ms (5.99 video frames)
Interleave, preload duration : 250 ms

Podobnie jest z samplami prores, ktore klatkuje strasznie.
Mam tez klopoty z plikami .ts (tych nie rusza) i AVC 2160p ( tu sa artefakty i zwolnienia)
Stockowe KODI (15.x ) nie probowalem jeszcze wgrywac bet.
Czy warto probowac instalowac bety 16.x i czy sprawiaja one jakies klopoty?
Poza tym Netflix, pommimo update'u, gra mi tylko w HD, Czy to jakis klopot tej wersji programu, czy zrodel problemu mam upatrywac w restrykcji - mam juz zarejestrowane urzadzenie UHD (konto testowe, "ze starego porfela" za nadal 6.99e :) ). Program nie inforumuje o tym ze moge streamowac UHD po wyrejestrowaniu telewizora.
Jeszcze jedno pytanie. Czy streamujesz gry z komputera, a jesli tak to jakie i z jakim skutkiem?
Edited by binary

Share this post


Link to post
Share on other sites

Koniecznie zainstaluj Kodi 16 beta 3 - ta wersja ma już oficjalne wsparcie dla Shield Tv. Osobiście co jakiś czas wgrywam wersje nocne. Koniecznie przy tym usuń dane aplikacji po instalacji wersji beta.

Co do gęstych formatów audio to Kodi 17 ma mieć pełne ich wsparcie, a Plex lada moment.

Co do Netflix-a się nie wypowiem bo niestety w PL usługa nie działa. Coś na ten temat czytałem na oficjalnym forum Nvidii.

Jeśli chodzi o gry to w ogóle nie gram.

Edited by janek_pl

Share this post


Link to post
Share on other sites

Po ostatnim wpisie kol. @binary pozwoliłem sobie przestestować trochę więcej plików VIDEO.

Przetestowane pliki wymagają mocnych bebechów w PC, a jak radzi sobie Nvidia Shield TV ?

Materiał testowy znajdował się, na już leciwym dysku NAS Firmy Synology. Dane szły po sieci gigabitowej, a za player posłużył mi KODI 16 nightlies w wersji z 9 grudnia 2015.

A więć co przetestowałem ?

A no następujące formaty video:

59.940fps - MKV

H.264 MKV - aż do 120mbs

H264 - 30fps

H264, 50-60fps

H265 8bit, - 30fps

H265 10bit- 30fps

H265 10bit - 50-60fps

i co ?

Wszystko działa bez najmniejszego zajęknięcia. Nie oznacza, że nie natrafimy na taki plik, który nie zadziała lub będzie odtwarzany fatalnie. Puki co trafiłem tylko na jeden problematyczny plik. Zresztą nie jest to pewnie wina samego Shielda, a raczej oprogramowania (KODI). W momentach stresowych obciążenie procka wynosiło łącznie na wszystkich rdzeniach w granicach 50% i to przy plikach H265 10bit co pokazuje jak wielki zapasy mocy tkwi w małej czarnej skrzynce.

Następny etap to test gęstych formatów audio. Na to jednak trzeba poczekać do wydania pierwszych wersji alpha Kodi 17.

Pozdrawiam

Edited by janek_pl

Share this post


Link to post
Share on other sites

Witam

Poszukuje odtwarzacz ktory dogada sie z synology 115j. Trafiłem na nvidie shiled. Czy ten player obsługuje cifs/samba?

I ogolnie mozna go gdzieś w polsce kupic? jakie sa orinetacyjne ceny? Cos szukam w necie i lipa

Share this post


Link to post
Share on other sites

Sam player nie ma obsługi nfs/samba itd. Natomiast jeśli zainstalujesz np Kodi lub inny player to bez problemu połączysz się praktycznie każdym możliwym sposobem. Sam mam Synology i tandem ten działą wyśmienicie.

Co do zakupu w PL to na tą chwilę nie ma takiej możliwości. Możesz zamówić np. na amazon.de z darmową wysyłką do Polski. Niedawno brałem to zapłaciłem 199euro z pilotem.

Pozdrawiam

Share this post


Link to post
Share on other sites

Wazne abys wiedzial, ze narazie Shield, przynajmniej w KODI (16.4), nie zapewnia bitstreamu HDaudio. Przycina tez czasem dzwiek w przypadku streamowania (1Gib) bd iso. Trzeba przyznac, ze odpala iso momentalnie, ale zdecydowanie potrzebuje nowego softu.

Share this post


Link to post
Share on other sites

Czyli ogólnie polecacie ten sprzęt?

Zalezy mi aby mkv z napisami w fullhd i dts zlokalizowane na synology działały bez przycinki i nie chodzi mi tu odtwarzanie tresci po dlna, ogolnie jest jakas alternatywa godna polecenia?

Share this post


Link to post
Share on other sites

Ja polecam UWADZE.

To rakieta, ktora nie ma sobie rownych posrod playerowych i komputerowych SoC-ow. Jej mocy (czyt predkosc) i mozliwosciom ( czyt kompatybilnoscia z UHD), moze dopiero dorownac drogi i pradozerny komputer. Ale...

Na chwile obecna, poki nie ma prawidlowo dzialajacego bitstreamu audio, jako player dla sredniowymagajacego uzytkownika NIE MA RACJI BYTU.

Do tego dochodza jeszcze informacje o przeklamaniach koloru w oprogramowaniu 2.0 ( nie moge znalezc teraz linka). Poza tym wogole nie udalo mi sie zmusic jej do wyplucia dzwieku probkowanego powyzej 48kHz.

Kolejny plus to wykonanie, zas funkcje sterowania i nagrywania video, oceniam jako bezkonkurencyjne (jeszcze nie rozpakowalem malego pilota).

Niestety pad ma to do siebie, ze czasem, kiedy jest bliski rozladowania, przestaje dzialac i trzeba wcisnac przycisk Tegra na 12 sek i zsynchronizowac urzadzenia ponownie. jest to popularny problem. Mnie zdarzylo sie to raz.

Edited by binary
  • Like 1

Share this post


Link to post
Share on other sites

Join the conversation

You can post now and register later. If you have an account, sign in now to post with your account.
Note: Your post will require moderator approval before it will be visible.

Guest
Reply to this topic...

×   Pasted as rich text.   Paste as plain text instead

  Only 75 emoji are allowed.

×   Your link has been automatically embedded.   Display as a link instead

×   Your previous content has been restored.   Clear editor

×   You cannot paste images directly. Upload or insert images from URL.


  • Recently Browsing   0 members

    No registered users viewing this page.

×
×
  • Create New...